Movies - Other

Den Fordomde

  • Download 5x Faster
  • Download torrent
  • Direct Download
  • Rate this torrent +  |  -
Den Fordomde

Download FREE And Anonymously


Torrent info

Name:Den Fordomde

Total Size: 3.13 GB

Magnet: Magnet Link

Seeds: 0

Leechers: 0

Stream: Watch Full Movie @ Movie4u

Last Updated: 2014-01-31 03:34:03 (Update Now)

Torrent added: 2014-01-31 03:34:03



CyberGhost VPN For Torrents

Torrent Files List


 


Announce URL: http://tracker.thepiratebay.org/announce

Torrent description

Sebastian Bergman is een misdaad-profiler die wordt achtervolgd door de dood van zijn vrouw en kind in de tsunami van 2004. Hierdoor is hij een zuiplap en rokkenjager geworden die om niets meer geeft en zonder werk zit. Hij erft zijn moeders huis en ziet nieuws over een gruwelijke moord op een 15 jarige jongen, wiens hart eruit is gesneden.

Crime serie Swedish spoken!

www.imdb.com/title/tt1790954

--------------------- Dutch Friends 4ever ---------------------
---------------------------------------------------------------
- Bezoek ook eens mijn vrienden op: http://www.Film-Test.nl --
----- voor mijn Nederlandse Sync. ondertitels ---- en meer ----
------- http://www.Film-Test.nl ---- Over Films en meer -------
---------------------------------------------------------------

General:

Complete name : G:KlambakeDen FordomdePart01.avi
Format : AVI
Format/Info : Audio Video Interleave
File size : 1.56 GiB
Duration : 1h 29mn
Overall bit rate : 2 508 Kbps

Video:

Format : MPEG-4 Visual
Format profile : [email protected]
Format settings, BVOP : No
Format settings, QPel : No
Format settings, GMC : No warppoints
Format settings, Matrix : Default (H.263)
Codec ID : XVID
Codec ID/Hint : XviD
Duration : 1h 29mn
Bit rate : 2 049 Kbps
Width : 704 pixels
Height : 396 pixels
Display aspect ratio : 16:9
Frame rate : 25.000 fps
Color space : YUV
Chroma subsampling : 4:2:0
Bit depth : 8 bits
Scan type : Progressive
Compression mode : Lossy
Bits/(Pixel*Frame) : 0.294
Stream size : 1.27 GiB (82%)
Writing library : XviD 1.1.2 (UTC 2006-11-01)

Audio:

Format : AC-3
Format/Info : Audio Coding 3
Mode extension : CM (complete main)
Codec ID : 2000
Duration : 1h 29mn
Bit rate mode : Constant
Bit rate : 448 Kbps
Channel(s) : 6 channels
Channel positions : Front: L C R, Side: L R, LFE
Sampling rate : 48.0 KHz
Bit depth : 16 bits
Compression mode : Lossy
Stream size : 285 MiB (18%)
Alignment : Aligned on interleaves
Interleave, duration : 32 ms (0.80 video frame)
Interleave, preload duration : 288 ms


related torrents

Torrent name

health leech seeds Size
 


comments (0)

Main Menu

 

Sitemap