Movies - Other

Tyler Perrys Temptation 2013 Cam Feel-Free

  • Download 5x Faster
  • Download torrent
  • Direct Download
  • Rate this torrent +  |  -
Tyler Perrys Temptation 2013 Cam Feel-Free

Download FREE And Anonymously


Torrent info

Name: Tyler Perrys Temptation 2013 Cam Feel-Free

Total Size: 779.50 MB

Magnet: Magnet Link

Seeds: 0

Leechers: 0

Stream: Watch Full Movie @ Movie4u

Last Updated: 0000-00-00 00:00:00 (Update Now)

Torrent added: 2013-04-06 02:34:03



CyberGhost VPN For Torrents

Torrent Files List


Tyler.Perrys.Temptation.2013.Cam.Feel-Free.avi (Size: 779.50 MB) (Files: 8)

 Tyler.Perrys.Temptation.2013.Cam.Feel-Free.avi

778.54 MB

 Tyler.Perrys.Temptation.2013.Cam.Feel-Free.nfo

3.19 KB

 vlcsnap-2013-04-06-09h14m56s52.png

293.63 KB

 vlcsnap-2013-04-06-09h15m06s179.png

366.38 KB

 vlcsnap-2013-04-06-09h15m23s88.png

274.77 KB

 www.scenetime.com.txt

0.05 KB

 www.Speed.Cd read me .txt

0.05 KB

 zDeOJ.jpg

45.08 KB
 

Announce URL:

Torrent description

-

http://www.Speed. Cd the fast and The Hottest Private Tracker on the net
http://www.Speed. Cd

Please Seed back to make the speed Faster!!
............ NFO .............
-

 Tyler Perrys Temptation 2013 Cam Feel-Free preview 0
 Tyler Perrys Temptation 2013 Cam Feel-Free preview 1


Genre:Drama
Language:English
IMDb:http://www.imdb.com/title/tt2070862/
Source:OCW Thanks
Sample:Never
Encoder:Tony

Format : AVI
Format/Info : Audio Video Interleave
File size : 779 MiB
Duration : 1h 46mn
Overall bit rate : 1 023 Kbps

Video
ID : 0
Format : MPEG-4 Visual
Format profile : Advanced [email protected]
Format settings, BVOP : 2
Format settings, QPel : No
Format settings, GMC : No warppoints
Format settings, Matrix : Default (H.263)
Muxing mode : Packed bitstream
Codec ID : XVID
Codec ID/Hint : XviD
Duration : 1h 46mn
Bit rate : 851 Kbps
Width : 640 pixels
Height : 392 pixels
Display aspect ratio : 1.633
Frame rate : 29.970 fps
Color space : YUV
Chroma subsampling : 4:2:0
Bit depth : 8 bits
Scan type : Progressive
Compression mode : Lossy
Bits/(Pixel*Frame) : 0.113
Stream size : 648 MiB (83%)
Writing library : XviD 64

Audio
ID : 1
Format : AC-3
Format/Info : Audio Coding 3
Mode extension : CM (complete main)
Codec ID : 2000
Duration : 1h 46mn
Bit rate mode : Constant
Bit rate : 160 Kbps
Channel(s) : 2 channels
Channel positions : Front: L R
Sampling rate : 48.0 KHz
Bit depth : 16 bits
Compression mode : Lossy
Stream size : 122 MiB (16%)
Alignment : Aligned on interleaves
Interleave, duration : 33 ms (1.00 video frame)
Interleave, preload duration : 512 ms


Plot:
An ambitious married womans temptation by a handsome billionaire leads to betrayal, recklessness, and forever alters the course of her life.



Greets:
CRYS,INSPiRAL,IMAGINE,LKRG,ADTRG,FXG,3Li,FLAWL3SS,CrEwSaDe,TA,iLLUSiON,EMBER,HOPE,GooN,BBnRG,NOGRP,ETRG,BHRG,iLLUMiNATi,MiSTERE.ViSiON,DTRG SAFCuk009,LU,TheFalcon007,MYSTiC,PrisM,Noir,WBZ,LAP,Rx,Kingdom,SAFCuk009+Fabreezy,HDLiTE,TWiZTED,ETRG.ELEKTRI4KA,MAGNAT,CM8
And to all the other p2p grps past and present

related torrents

Torrent name

health leech seeds Size
 


comments (0)

Main Menu

 

Sitemap