Music

Maroon 5 - One More Night [Music Video] 1080p [Sbyky] mp4

  • Download 5x Faster
  • Download torrent
  • Direct Download
  • Rate this torrent +  |  -

Torrent info

Name:Maroon 5 - One More Night [Music Video] 1080p [Sbyky] mp4

Total Size: 162.82 MB

Magnet: Magnet Link

Seeds: 0

Leechers: 0

Stream: Watch Full Movie @ Movie4u

Last Updated: 2017-09-29 12:41:40 (Update Now)

Torrent added: 2013-02-20 00:21:14



CyberGhost VPN For Torrents

Torrent Files List


 

tracker

leech seeds
 

Torrent description

Maroon 5 - One More Night [Music Video] 1080p [Sbyky] mp4 preview 0 General Complete name : Maroon 5 - One More Night [Music Video] 1080p [Sbyky].mp4 Format : MPEG-4 Format profile : Base Media / Version 2 Codec ID : mp42 File size : 163 MiB Duration : 3mn 42s Overall bit rate mode : Variable Overall bit rate : 6 126 Kbps Encoded date : UTC 2012-06-14 00:31:43 Tagged date : UTC 2012-06-14 00:31:43 gsst : 0 gstd : 223096 gssd : BADC21F85HH1359217142878707 Video ID : 1 Format : AVC Format/Info : Advanced Video Codec Format profile : [email protected] Format settings, CABAC : Yes Format settings, ReFrames : 1 frame Codec ID : avc1 Codec ID/Info : Advanced Video Coding Duration : 3mn 42s Bit rate : 5 974 Kbps Maximum bit rate : 16.7 Mbps Width : 1 920 pixels Height : 1 080 pixels Display aspect ratio : 16:9 Frame rate mode : Constant Frame rate : 23.976 fps Color space : YUV Chroma subsampling : 4:2:0 Bit depth : 8 bits Scan type : Progressive Bits/(Pixel*Frame) : 0.120 Stream size : 159 MiB (98%) Tagged date : UTC 2012-06-14 00:31:45 Audio ID : 2 Format : AAC Format/Info : Advanced Audio Codec Format profile : LC Codec ID : 40 Duration : 3mn 42s Bit rate mode : Variable Bit rate : 149 Kbps Maximum bit rate : 192 Kbps Channel(s) : 2 channels Channel positions : Front: L R Sampling rate : 44.1 KHz Compression mode : Lossy Stream size : 3.97 MiB (2%) Title : IsoMedia File Produced by Google, 5-11-2011 Encoded date : UTC 2012-06-14 00:31:44 Tagged date : UTC 2012-06-14 00:31:45 Shared By Sbyky http://www.shotpix.com/images/93673952718153918459.gif Maroon 5 - One More Night [Music Video] 1080p [Sbyky] mp4 preview 2-------------------------------------Torrent downloaded from http://thepiratebay.se

related torrents

Torrent name

health leech seeds Size
 


comments (0)

Main Menu

 

Sitemap