Movies - Other

{

  • Download 5x Faster
  • Download torrent
  • Direct Download
  • Rate this torrent +  |  -
{

Download FREE And Anonymously


Torrent info

Name:{

Total Size: 1.42 GB

Magnet: Magnet Link

Seeds: 0

Leechers: 0

Stream: Watch Full Movie @ Movie4u

Last Updated: 2011-09-12 01:35:17 (Update Now)

Torrent added: 2011-09-12 02:35:17

Alternatives:{ Torrents



CyberGhost VPN For Torrents

Torrent Files List


Downloaded from www.scenetime.com.txt (Size: 1.42 GB) (Files: 6)

 Downloaded from www.scenetime.com.txt

0.19 KB

 Read This Guide First.txt

0.19 KB

 rosebud special.avi

57.56 MB

 sample.avi

14.43 MB

 Spooky.Buddies.2011.DVDRip.XVID.AC3.HQ.Hive-CM8.avi

1.35 GB

 Spooky.Buddies.2011.DVDRip.XVID.AC3.HQ.Hive-CM8.nfo

4.86 KB
 

Announce URL:

Torrent description

.

http://www.scenetime.com - Hottest private tracker on the net. !!!

New release on http://www.scenetime.com

Seed back for speed


...................................NFO:.................................................{ preview 0

[color=blue][size=5][b]Spooky.Buddies.2011.DVDRip.XVID.AC3.HQ.Hive-CM8[/b][/size][/color]


[b]Thx Hive

CM8 Doing It Right The First Time :D


Source: R1 DVD-R

Encode:

presenting you 1 week earlier than retail, the newest disney movie.
DVD had nice quality, made my usual cleanup,brightness,sharpness,rgb,denoise.
There was a lot of bonus on the disc, nothing special but there was a 4min additional Bonusclip with Rosebud , which i added as an additional file for the one who want to see it.
enjoy

Video: 720x400 @bitrate 1800 2pass
Audio: English AC3 5.1 @384
Sample: yes included
Bonus: yes the 4min Rosebud Special[/b]


[url]http://www.imdb.com/title/tt1792131/[/url]


General
Complete name : Spooky.Buddies.2011.DVDRip.XVID.AC3.HQ.Hive-CM8.avi
Format : AVI
Format/Info : Audio Video Interleave
File size : 1.35 GiB
Duration : 1h 28mn
Overall bit rate : 2 193 Kbps
Writing application : Nandub v1.0rc2
Writing library : Nandub build 1853/release

Video
ID : 0
Format : MPEG-4 Visual
Format profile : Advanced [email protected]
Format settings, BVOP : 1
Format settings, QPel : Yes
Format settings, GMC : No warppoints
Format settings, Matrix : Default (H.263)
Muxing mode : Packed bitstream
Codec ID : XVID
Codec ID/Hint : XviD
Duration : 1h 28mn
Bit rate : 1 799 Kbps
Width : 720 pixels
Height : 400 pixels
Display aspect ratio : 16:9
Frame rate : 23.976 fps
Color space : YUV
Chroma subsampling : 4:2:0
Bit depth : 8 bits
Scan type : Progressive
Compression mode : Lossy
Bits/(Pixel*Frame) : 0.261
Stream size : 1.11 GiB (82%)
Writing library : XviD 1.2.1 (UTC 2008-12-04)

Audio
ID : 1
Format : AC-3
Format/Info : Audio Coding 3
Mode extension : CM (complete main)
Codec ID : 2000
Duration : 1h 28mn
Bit rate mode : Constant
Bit rate : 384 Kbps
Channel(s) : 6 channels
Channel positions : Front: L C R, Side: L R, LFE
Sampling rate : 48.0 KHz
Bit depth : 16 bits
Compression mode : Lossy
Stream size : 243 MiB (18%)
Alignment : Split accross interleaves
Interleave, duration : 42 ms (1.00 video frame)
Interleave, preload duration : 500 ms



Sierra McCormick ... Alice
Harland Williams ... Warwick
Elisa Donovan ... Janice
Jennifer Elise Cox ... Mrs. Carroll
Frankie Jonas ... Pip (voice)


Its Halloween, and Disneys irresistible talking puppies are back in an all-new movie that takes them far across town to a mysterious mansion where something very spooky is going on. With the help of some unexpected new friends, including a friendly ghost, this trick-or-treat adventure is howling-good Buddy fun.
In a race against the Howlloween Hound, the Buddies and their new friends, Pip, Zelda, Rodney and Skip must stop Warlock the Magician - and save the world from his dastardly deeds.


{ preview 1
{ preview 2
{ preview 3
{ preview 4
{ preview 5
{ preview 6
{ preview 7
{ preview 8






Greetz

ViSiON,SiC,SANTi,3LT0N,YanKeeS,MAGNET,THC,T0XiC,LKRG,FANTASIA-PLAY,FANTASIA-M,BHRG,
D2U,WBZ,FLAWL3SS,NOVA,Vik,Rapeseed,SAFC,goldadvance,MEMORY100,scumbag,KaN1vE,Unevano,Pinnz,
Mr Hive,Wayne,cedrict wink,and all P2P groups

FYS

LOOKING FOR ANYTHING YOU WANT TO LOOK AND SOUND BETTER

[email protected]

mixed emotions today at the flight 93 memorial in Shanksville
RIP Mark Bingham and all that perished
managed to get photos with both Obama and the first Lady :D

[url]http://vimeo.com/19718267[/url]



comments (0)

Main Menu

 

Sitemap